0

Ken Park (2002) Full HD Movie Free Download

Ken Park is a 2002 drama film written by Harmony Korine, who based it on Larry Clark’s journals and stories. The film was directed by Clark and Edward Lachman. The film is an international co-production of the United States, the Netherlands, and France. The film revolves around the abusive and/or dysfunctional home lives of several teenagers, set in the city of Visalia, California.

Ken Park (2002) Details

Note: Dropbox Account has been blocked. Kindly comment below if torrent links are not available. Thanks.
Info: IMDB

Ken Park (Uncut/Uncensored Director's Version) DVD RIP (2002)
Format : MPEG-4
Format profile : Base Media / Version 2
Codec ID : mp42
File size : 1.05 GiB
Duration : 1h 32mn
Overall bit rate mode : Variable
Overall bit rate : 1 631 Kbps
Encoded date : UTC 2013-11-24 02:18:23
Tagged date : UTC 2013-11-24 03:14:49
Writing application : HandBrake 0.9.9 2013052900

Video
ID : 1
Format : AVC
Format/Info : Advanced Video Codec
Format profile : High@L5.2
Format settings, CABAC : Yes
Format settings, ReFrames : 4 frames
Codec ID : avc1
Codec ID/Info : Advanced Video Coding
Duration : 1h 32mn
Bit rate : 1 362 Kbps
Width : 720 pixels
Height : 576 pixels
Display aspect ratio : 16:9
Frame rate mode : Constant
Frame rate : 25.000 fps
Standard : PAL
Color space : YUV
Chroma subsampling : 4:2:0
Bit depth : 8 bits
Scan type : Progressive
Bits/(Pixel*Frame) : 0.131
Stream size : 900 MiB (83%)
Writing library : x264 core 130 r2273 b3065e6
Encoding settings : cabac=1 / ref=3 / deblock=1:0:0 /
Encoded date : UTC 2013-11-24 02:18:23
Tagged date : UTC 2013-11-24 03:14:49
Color primaries : BT.601 PAL
Transfer characteristics : BT.709
Matrix coefficients : BT.601

Audio #1
ID : 2
Format : AAC
Format/Info : Advanced Audio Codec
Format profile : LC
Codec ID : 40
Duration : 1h 32mn
Bit rate mode : Variable
Bit rate : 96.0 Kbps
Maximum bit rate : 120 Kbps
Channel(s) : 2 channels
Channel positions : Front: L R
Sampling rate : 48.0 KHz
Compression mode : Lossy
Stream size : 63.4 MiB (6%)
Language : English
Encoded date : UTC 2013-11-24 02:18:23
Tagged date : UTC 2013-11-24 03:14:48


Ken Park (2002) Download Now


Download uTorrent

How To Download Movies With  uTorrent

How To Download Movies

Like & Share

MHDMP

Leave a Reply

Your email address will not be published. Required fields are marked *