0

North Country (2005) Full HD Movie Free Download

Based on the true story of a woman who in 1975 broke the barriers of gender discrimination. One of the first cases in which a judge ruled in favor of a woman. Josey Aimes is a courageous mother to pay bills that have to work very hard in the iron mines of Minnesota. Tired of endure countless humiliations that go beyond insults, decides to sue for sexual harassment.

North Country (2005) Details



Info: IMDB

North Country[2005]DvDrip[Eng]-aXXo

IMDB: -- 126 min -- 21 October 2005 (USA) | R
Genre: Drama
IMDB Rating: 7.2/10
Directed by: Niki Caro
Starring: Charlize Theron, Jeremy Renner and Frances McDormand

Info :
File size: 701.5 Mb
Antivirus (Kaspersky) check: ok (2010-12-14 10:14:02)

Video info:
Duration: 02:06:06.27, start: 0.000000, bitrate: 777 kb/s
Stream #0.0: Video: mpeg4, yuv420p, 560x228 [PAR 1:1 DAR 140:57], 23.98 tb(r)

Audio info:
Stream #0.1: Audio: mp3, 48000 Hz, stereo, 80 kb/s


North Country (2005) Download Now

note
Links Not Available / Links Not Working? Kindly let us know through comments below.
Unable To Download Movies? Follow the directions given below.
note
Some content (LINKS) might be restricted. Change your IP via VPN. Use HOXX VPN to unlock content. It's fast and free.
How To Download Movies

Like & Share

Leave a Reply

Your email address will not be published. Required fields are marked *